#TITLE:Magnet;
#SUBTITLE:;
#ARTIST:Hatsune Miku & Megurine Luka;
#TITLETRANSLIT:;
#SUBTITLETRANSLIT:;
#ARTISTTRANSLIT:;
#CREDIT:;
#BANNER:Hatsune Miku & Megurine Luka - Magnet-banner.jpg;
#BACKGROUND:Hatsune Miku & Megurine Luka - Magnet-bg.jpg;
#LYRICSPATH:Hatsune Miku & Megurine Luka - Magnet.lrc;
#CDTITLE:CDTitle.png;
#MUSIC:Hatsune Miku & Megurine Luka - Magnet.ogg;
#OFFSET:0.360;
#SAMPLESTART:10.160;
#SAMPLELENGTH:12.000;
#SELECTABLE:YES;
#BPMS:0.000=108.000;
#STOPS:;
#BGCHANGES:;
// cache tags:
#FIRSTBEAT:3.000;
#LASTBEAT:214.000;
#SONGFILENAME:songs/Vocaloid Party/Hatsune Miku & Megurine Luka - Magnet/Hatsune Miku & Megurine Luka - Magnet.sm;
#HASMUSIC:1;
#HASBANNER:1;
#MUSICLENGTH:119.125;
// end cache tags

//---------------dance-single - ----------------
#NOTES:
     dance-single:
     :
     Challenge:
     10:
     0.703,0.694,0.437,0.302,1.000,498.000,52.000,36.000,26.000,0.000:
0000
0000
0000
0000
0000
0000
0000
0000
0000
0000
0000
0000
1000
0100
0010
0001
,
0000
0000
1000
0100
0010
0001
0000
0000
0000
0000
0000
0000
1000
0100
0010
0001
,
0000
0000
1000
0100
0010
0001
0000
0000
0000
0000
0000
0000
1000
0100
0010
0001
,
0000
0000
1000
0100
0010
0001
0000
0000
0000
0000
0000
0000
2002
0000
3003
0220
,
0330
2200
3300
0022
0033
0100
0010
0000
0100
0010
0000
1000
0110
0010
0100
0000
,
1000
0100
0000
110M
0000
0110
0000
0011
M000
0010
1000
0100
0000
0000
0010
0000
,
0101
0100
0000
M011
0000
1100
0000
011M
0000
1000
0010
1000
0000
0000
0001
0000
,
0011
0001
0000
M110
0000
0011
0000
1M10
0000
0100
0001
0000
1010
0000
0100
0000
,
0210
0000
0300
0010
0100
0001
0000
0100
0000
0100
0010
0000
0000
1000
0100
0010
,
0100
0000
0010
0000
0001
0000
0100
0000
0000
0000
0000
0000
0001
1000
0001
1000
0000
0000
0000
0000
0010
0000
0100
0000
0010
0000
0100
0000
0001
0000
0010
0000
,
0100
0000
1000
0000
0001
0000
0100
0000
0010
0000
1000
0100
0010
0001
1000
0000
0010
0000
0100
0000
0010
0000
1000
0000
0010
0000
0000
0000
1000
0100
0010
0001
,
0100
0000
0000
0000
0011
0000
0001
0010
0100
0000
1000
0100
1000
0000
0001
0010
,
0000
0100
0000
0010
0100
0000
0000
1010
0000
0000
0110
0000
1000
0010
1000
0200
,
0000
0010
0000
0302
0000
1000
0000
0103
0100
0000
0010
0000
0001
0010
0100
0020
,
0000
0100
0000
2030
0000
0001
3100
0000
0010
0000
0100
0000
0001
1000
0010
0200
,
0000
0010
0000
0320
0000
1000
0000
0130
0010
0000
0100
0000
0001
0000
0010
0100
,
0000
1000
0000
0001
0000
0120
0000
0031
0100
0000
0010
0000
1000
0001
0010
0200
,
0000
1000
0000
0320
0000
0100
0000
1030
0001
0000
0100
0000
0001
0100
0001
0020
,
0000
0100
0000
2030
0000
0001
3010
0000
0100
0000
1000
0000
0100
0010
0001
0200
,
0000
0001
0000
0320
0000
0100
0000
1030
0001
0000
0100
0000
0M20
0000
0000
0030
,
0220
0000
0000
0300
1030
0000
0001
0100
0000
0000
0010
0000
0101
0000
0000
0000
,
1000
0000
0001
0010
0000
0110
0000
0000
1000
0000
0010
0000
0100
0000
0001
0010
,
0000
0100
0000
1000
0100
0010
0100
1000
0000
0000
0001
1000
0020
0000
0000
0000
,
0030
0000
1000
0000
0200
0000
0000
0001
0000
0000
0310
0000
0001
0000
0100
0001
,
0010
0100
1000
0100
1000
0100
1000
0100
0010
0000
0001
0000
0110
0000
0000
0000
,
0010
0000
1000
0100
0000
1100
0000
0000
1000
0000
0010
0000
0100
0000
0010
0100
,
0000
0001
0000
0001
0000
0100
0010
0000
1000
0000
0001
0000
0001
0000
1000
0010
,
0000
0010
0000
0010
0000
00M0
0100
0000
0010
0000
0002
0000
2000
0000
0000
0000
,
3003
0000
0010
1000
1010
0000
0110
0000
0000
0001
1000
0001
0100
0000
0010
0100
,
0000
0010
0000
0110
0000
01M1
0000
0010
0100
0001
0000
0010
0000
0100
0000
0010
,
0000
0001
0000
M110
0000
1010
0000
0100
0010
1000
0000
0001
0000
1000
0000
0010
,
0000
02M0
0000
0301
1000
0010
0101
0000
,
0000
0000
0100
0010
0001
1000
0010
1000
0010
1000
0010
0000
0011
0000
1000
0001
,
0000
0100
0000
0010
0000
M11M
0000
0010
0100
0001
0000
0010
0000
0001
0000
1000
,
0000
0100
0000
0010
0000
M1M1
0000
0001
1000
0001
0000
0010
0000
0100
0000
0010
,
0000
2100
0000
3010
1000
0010
0110
0000
,
0000
0000
1000
0010
0100
0001
0010
0000
0001
0100
0010
1000
0100
0000
0010
0100
,
0000
1000
0000
0010
0000
1001
0000
001M
0100
0010
0000
1000
0000
0001
0000
0100
,
0000
0010
0000
1000
0000
0110
0000
1M00
0010
0100
0000
0001
0000
0100
0000
0010
,
0000
00M2
0000
0103
0010
1000
0101
0000
,
0000
0000
0100
0010
0100
0001
0010
0001
0010
0001
0010
0000
0100
0000
0001
1000
,
0000
0010
0000
0100
0000
0110
0000
0100
M01M
0100
0000
0001
0000
1000
0000
0010
,
0000
0100
0000
0001
0000
1010
0000
0010
1M0M
0010
0000
1000
0000
0001
0000
0100
,
0000
0120
0000
1030
0001
0100
1010
0000
,
0110
0000
0100
0010
1000
0010
0100
0000
0001
0100
0010
0100
0001
0000
1000
0000
,
0100
0010
0000
0M10
0000
0011
0000
001M
0000
0010
0001
0100
0000
0000
0001
0000
,
1000
0100
0000
M100
0000
0101
0000
010M
0000
0100
0001
0010
0000
0000
0100
0000
,
1000
0001
0000
0100
0000
0001
0000
1000
0000
0010
0100
0000
0002
0000
0000
0003
,
2002
0000
0000
0003
3010
0100
0000
0100
0010
0100
0001
0000
0000
1000
0001
0100
,
0010
0000
1000
0000
0010
0000
0100
0000
0000
0000
0000
0000
0010
1000
0010
1000
0000
0000
0000
0000
0001
0000
1000
0000
0010
0000
0100
0000
0010
0000
0100
0000
,
0001
0000
1000
0000
0010
0000
0100
0000
0001
0000
1000
0100
0010
0001
0100
0000
0010
0000
1000
0000
0100
0000
0010
0000
0100
0000
0000
0000
1000
0100
0010
0001
,
1000
0000
0000
0000
0000
0000
0001
0010
0100
0000
1000
0010
0100
0000
0001
0010
,
0000
0100
0000
1000
0100
0000
0000
1100
0000
0000
0101
0000
1000
0100
0010
0001
,
0000
0000
1000
0100
0010
0001
0000
0000
0000
0000
0000
0000
0000
0000
0000
0000
;

//---------------dance-single - ----------------
#NOTES:
     dance-single:
     :
     Hard:
     9:
     0.543,0.494,0.118,0.151,0.839,421.000,14.000,18.000,1.000,0.000:
0000
0000
0000
0000
0000
0000
0000
0000
0000
0000
0000
0000
1000
0100
0010
0002
,
0000
0003
0001
0010
0100
2000
0000
0000
3000
0000
0000
0000
1000
0100
0010
0002
,
0000
0003
0001
0010
0100
2000
0000
0000
3000
0000
0000
0000
1000
0100
0010
0002
,
0000
0003
0001
0010
0100
2000
0000
0000
3000
0000
0000
0000
0100
0000
0000
1000
,
0000
0001
0000
0100
0000
0000
0000
0000
0000
0000
0000
0000
1010
0000
0100
0000
,
0100
0010
0000
0010
0000
0100
0000
0001
0000
0100
0010
0000
0000
0000
0100
0000
,
0001
1000
0000
1000
0000
0001
0000
1000
0000
0000
0010
0100
0000
0000
0001
0000
,
0010
0100
0000
0100
0000
0010
0000
0001
0000
0100
0010
0000
1001
0000
0000
0000
,
0110
0000
0000
0000
1001
0000
0000
0100
0000
0000
0010
0000
0100
0000
0001
0010
,
0100
0010
0100
0010
0000
0000
0002
1003
0000
0000
0100
0000
0010
0001
0100
0000
,
0010
0100
0010
0000
1000
0001
0100
0001
1000
0000
0001
0100
0010
0000
2000
0000
,
3001
0000
0000
0000
0000
0000
1000
0000
0010
0000
0100
0000
1010
0000
0001
0100
,
0000
1001
0000
0000
0101
0000
0000
1000
0000
0000
0010
0000
1000
0000
0001
0010
,
0000
0001
0000
1000
0000
0010
0000
0100
0010
0000
1000
0000
0001
0000
0100
0010
,
0000
1000
0000
0001
0000
0100
0020
0000
0000
0000
0030
0000
1000
0000
0001
0100
,
0000
0010
0000
1000
0000
0010
0000
0100
0010
0000
1000
0000
0001
0000
0100
0010
,
0000
1000
0000
0001
0000
0210
0000
0000
0000
0000
0300
0000
1000
0000
0001
0100
,
0000
0010
0000
0100
0000
0001
0000
1000
0010
0000
1000
0000
0001
0000
0100
0001
,
0000
0100
0000
0010
0000
1000
0020
0000
0000
0000
0030
0000
0100
0000
0100
0010
,
0000
1000
0000
0001
0000
0100
0000
0001
0100
0000
0010
0000
0200
0000
0000
0000
,
0320
0000
0000
0000
1030
0000
0001
0100
0000
0000
0000
0000
0110
0000
0000
0000
,
1000
0000
0000
0001
0000
0100
0000
0000
0010
0000
1000
0000
0010
0000
0100
0001
,
0000
0010
0000
0100
0000
0000
0000
0000
0000
0000
0010
0001
0010
0000
0000
0000
,
0100
0000
0010
0000
0001
0000
0000
0001
0000
0000
0100
0000
0010
0000
1000
0002
,
0000
0000
0000
0003
100M
0100
0110
0000
,
1000
0000
0000
0001
0000
0100
0000
0000
0010
0000
1000
0000
0100
0000
1000
0010
,
0000
0100
0000
0001
0000
0000
1000
0000
0010
0000
0100
0000
1002
0000
1000
0000
,
0100
0100
0000
0100
0003
0000
1000
0000
0001
0000
0100
0000
0001
0000
0000
0000
,
0000
0000
1000
0001
0000
0000
0000
0000
0000
1000
0100
0010
0100
0000
0010
0001
,
0000
0100
0000
0000
0000
0000
0000
0100
0010
1000
0000
0010
0000
0100
0000
0001
,
0000
0100
0000
0000
0000
0000
0000
0001
0010
0001
0000
0100
0000
0010
0000
0100
,
0000
0000
0010
0000
0000
0000
1000
0000
0100
0000
1000
0000
0010
0000
0100
0010
,
0100
0000
0010
0000
0100
0010
1000
0100
0010
0001
0100
0000
0010
0000
0100
0001
,
0000
1000
0000
0001
0000
0000
0000
0100
0010
1000
0000
0100
0000
1000
0000
0001
,
0000
0100
0000
0010
0000
0000
0000
1000
0001
1000
0000
0100
0000
0010
0000
0001
,
0000
0100
0000
0010
1000
0100
0010
0100
,
1000
0001
1000
0000
0010
0100
0010
0000
0100
0010
1000
0100
1000
0000
0100
0010
,
0000
0001
0000
1000
0000
0000
0000
0001
1000
0010
0000
0100
0000
0010
0000
0100
,
0000
0001
0000
0010
0000
0000
0000
0100
1000
0100
0000
1000
0000
0010
0000
0100
,
0000
0001
0000
0100
0010
1000
0010
0000
,
1001
0000
1000
0001
1000
0010
1000
0000
0001
0010
0001
0000
0101
0000
1000
0010
,
0000
0100
0000
0001
0000
0000
0000
0001
0100
0010
0000
0100
0000
0010
0000
1000
,
0000
0010
0000
0100
0000
0000
0000
0001
0010
0001
0000
1000
0000
0010
0000
0100
,
0000
0010
0000
0100
0001
1000
0010
0000
,
0100
0000
0001
1000
0100
0010
0100
0000
1000
0001
1000
0000
1100
0000
0010
0000
,
1000
0010
0000
0100
0000
0010
0000
0100
0000
0010
1000
0000
0000
0000
0010
0000
,
0100
0001
0000
1000
0000
0001
0000
1000
0000
0000
0001
0010
0000
0000
0001
0000
,
1000
0010
0000
0100
0000
0010
0000
0100
0000
0010
0100
0000
0010
0000
0000
0000
,
1000
0000
0000
0000
0001
0000
0000
0100
0000
0000
0010
0000
1000
0000
0010
0100
,
0010
0100
0010
0100
0000
0000
0002
1003
0000
0000
1000
0000
0001
0100
0001
0100
,
0001
0000
0100
0000
0001
1000
0001
1000
0001
0000
0010
0000
0100
0000
1000
0010
,
1000
0000
0000
0000
0000
0000
0010
0100
0001
0000
0010
0100
0010
0000
0001
0000
,
0100
0000
0001
0000
0010
0001
0100
0001
0010
0100
1000
0000
0010
0100
0010
0200
,
0000
0000
0310
0100
0010
0200
0000
0000
0300
0000
0000
0000
0000
0000
0000
0000
;

//---------------dance-single - ----------------
#NOTES:
     dance-single:
     :
     Medium:
     7:
     0.385,0.336,0.252,0.034,0.172,287.000,30.000,4.000,0.000,0.000:
0000
0000
0000
0000
0000
0000
0000
0000
0000
0000
0000
0000
1000
0000
0010
0100
,
0000
0000
0010
0000
1000
0001
0000
0000
0000
0000
0000
0000
0100
0000
0010
0100
,
0000
0000
0001
0000
1000
0100
0000
0000
0000
0000
0000
0000
1000
0000
0001
0100
,
0000
0000
0010
0000
1000
0010
0000
0000
0000
0000
0000
0000
2010
0000
0000
0010
,
0000
3010
0000
0110
0000
0000
0000
0000
0000
0000
0000
0000
0001
1000
0001
0000
,
1000
0000
0000
0010
0000
0010
0000
0010
0000
0000
0000
0000
0000
0000
0100
0000
,
0001
0100
0000
0100
0000
0100
0000
0100
0000
0000
0000
0000
0000
0000
0010
0000
,
1000
0001
0000
0001
0000
0001
0000
0001
0000
0000
0000
0000
1001
0000
0000
0000
,
0110
0000
0110
0000
1001
0000
1001
1000
,
0010
0100
0000
0000
0000
0001
0100
0001
,
0100
0010
0100
0010
1000
0100
0010
0100
,
1000
0000
0000
0001
0100
0010
0100
0000
,
0000
0000
1001
0000
1001
0000
0100
0001
,
0100
0000
0000
0010
0000
0000
0011
0000
0001
0000
0000
0000
1010
0000
0000
0000
,
1000
0000
0000
0010
0000
0000
0110
0000
0100
0000
0000
0000
1001
0000
0000
0000
,
0001
0000
0000
0100
0000
0000
0101
0000
0001
0000
0000
0000
1010
0000
0000
0000
,
1000
0000
0000
0100
0000
0000
0011
0000
0010
0000
0000
0000
0001
0000
0010
0000
,
0100
0000
0000
0100
0000
0000
0001
0000
0100
0000
0010
0000
0100
0000
0000
0000
,
0010
0000
0000
0010
0000
0000
0100
0000
0010
0000
1000
0000
0001
0000
0000
0000
,
1000
0000
0000
1000
0000
0000
0010
0000
0100
0000
0000
0000
0020
0000
0000
0000
,
2030
0000
3100
0010
0000
0000
0001
0000
,
0001
0000
0000
1010
0100
0010
1000
0000
,
0010
0000
0000
0000
0100
0010
0100
0010
0000
0000
1000
0000
0001
0000
0000
0000
,
1000
0000
0000
0110
0100
0000
0100
0000
,
0001
0000
0000
0000
0000
0100
0010
0000
0101
0000
0100
0000
0001
0000
0000
0000
,
1000
0000
0000
0110
0100
0000
0010
0000
,
1000
0000
0000
0000
0000
0100
0010
0000
1100
0000
0001
0000
0100
0000
0000
0000
,
0010
1000
0010
0100
0010
1000
0001
0000
,
0000
0000
1001
1001
0000
0000
1001
0000
,
0100
0000
0001
0001
0100
0000
0010
0000
,
1000
1000
0001
0100
0010
0000
1000
0000
,
0010
0100
0000
0010
1000
0000
0001
0000
,
0000
0000
0010
0000
0200
0000
0000
0010
0000
0000
0010
0000
1300
0000
0000
0000
,
0001
0100
0010
0000
0100
0000
0001
0100
,
0010
1000
0001
0100
0010
0000
0100
0000
,
0000
0001
0100
1100
,
0100
0101
1010
0110
,
0100
0001
1000
0000
0001
0000
0100
0010
,
0100
0010
1000
0000
0001
1000
0001
0000
,
1000
0000
0001
0100
0010
1000
0001
0000
,
0110
0000
1000
0010
0100
0010
0100
0000
,
0001
0000
1000
0000
0001
0100
0010
0000
,
0100
0000
0010
0000
1000
0100
0010
0000
,
0100
0010
0001
0000
1000
0010
0100
0010
,
0100
0001
0010
0100
0010
0001
0010
0000
,
0100
0000
0000
1000
0000
1000
0000
1000
0000
0000
0000
0000
0001
0000
0000
0000
,
0010
0000
0001
0000
0100
0100
0000
0000
,
0001
0000
0000
0010
0000
0010
0000
0010
0000
0000
0000
0000
0100
0000
0000
0000
,
1001
0000
0100
0000
0010
0010
1000
0010
,
1000
0010
0000
0000
0000
1000
0001
0100
,
0001
0010
0100
0010
0001
1000
0010
0000
,
0100
0000
0000
0001
0010
0100
1000
0000
,
0010
0000
0000
0000
1000
0000
0000
0000
0001
0000
0000
0000
0100
0000
0010
1000
,
0000
0000
0001
0000
1000
0100
0000
0000
0000
0000
0000
0000
0000
0000
0000
0000
;

//---------------dance-single - ----------------
#NOTES:
     dance-single:
     :
     Easy:
     3:
     0.145,0.197,0.000,0.008,0.000,120.000,0.000,1.000,0.000,0.000:
0000
0000
0000
0000
,
0000
0000
0000
0000
,
0000
0000
0000
0000
,
0000
0000
0000
1000
,
0000
0000
0000
0100
,
0000
0000
0000
0000
0010
0000
0000
0001
,
0001
0000
0000
0000
0100
0000
0000
0010
,
0010
0000
0100
0001
,
1000
0010
0100
0010
,
0000
1000
0000
0001
,
0001
0100
0100
0010
,
0010
0000
0000
1000
,
0000
0001
0000
0100
,
0000
0000
0010
0100
,
0000
0000
0001
1000
,
0000
0000
0001
0100
,
0000
0000
0000
0010
,
0000
0000
1000
0001
,
0000
0000
0100
0001
,
0000
0000
1000
0100
,
0000
0020
0030
0001
,
0000
1000
0000
0010
,
0000
0100
0000
0001
,
0000
1000
0000
0001
,
0000
0000
0000
0100
,
0000
0010
0000
1000
,
0000
0001
0000
0100
,
0000
0010
0000
0100
,
0000
0010
0000
1000
,
0000
0000
0001
0001
,
0000
0000
0100
0100
,
0000
0010
0000
0000
1000
0000
0001
0000
,
0000
0100
0000
0001
,
1000
0001
0000
0100
,
0010
0100
0000
0010
,
1000
0010
0000
0100
,
0000
0001
0000
1000
,
0001
1000
0000
0001
,
0100
0001
0000
0100
,
0010
0100
0000
0001
,
0000
1000
0000
0010
,
0100
0010
0000
1000
,
0100
1000
0000
0001
,
0010
0001
0000
1000
,
0000
0010
0000
0100
,
0100
0000
0000
0000
0010
0000
0000
1000
,
1000
0000
0001
0000
0100
0000
0000
0001
,
0001
0010
0100
1000
,
0010
0100
0001
0000
,
0000
0000
1000
0001
,
0100
0010
0100
0010
,
1000
0000
0001
0100
,
0000
0010
0000
0000
;

//---------------dance-single - ----------------
#NOTES:
     dance-single:
     :
     Beginner:
     1:
     0.060,0.065,0.017,0.000,0.000,48.000,2.000,0.000,0.000,0.000:

0000
0000
0000
0000
,
0000
0000
0000
0000
,
0000
0000
0000
0000
,
0000
0000
0000
0000
,
0000
0000
0000
1000
,
0000
0000
0000
0010
,
0000
0000
0000
0100
,
0000
0000
0000
1010
,
0000
0000
0000
1000
,
0000
0000
0000
0001
,
0000
0000
0000
0100
,
0000
0000
0000
0010
,
0000
0000
0000
1000
,
0000
0000
0000
0001
,
0000
0000
0000
0100
,
0000
0000
0000
0010
,
0000
0000
0000
0100
,
0000
0000
0000
0010
,
0000
0000
0000
1000
,
0000
0000
0000
0001
,
0000
0000
0000
0100
,
0000
0000
0000
0010
,
0000
0000
0000
1000
,
0000
0000
0000
0001
,
0000
0000
0000
0100
,
0000
0000
0000
0010
,
0000
0000
0000
1000
,
0000
0000
0000
0010
,
0000
0000
0000
0100
,
0000
0000
0000
0001
,
0000
0000
0000
1000
,
0000
0000
0000
0001
,
0000
0000
0000
0100
,
0000
0000
0000
0010
,
0000
0000
0000
1000
,
0000
0000
0000
0100
,
0000
0000
0000
1000
,
0000
0000
0000
0001
,
0000
0000
0000
0100
,
0000
0000
0000
0010
,
0000
0000
0000
0100
,
0000
0000
0000
0001
,
0000
0000
0000
1000
,
0000
0000
0000
0010
,
0000
0000
0000
0100
,
0000
0000
0000
0001
,
0000
0000
0000
1000
,
0000
0000
0000
0010
,
0000
0000
0000
0100
,
0000
0000
0000
0001
,
0000
0000
0000
1000
,
0000
0000
0000
0110
;
